• 400-123-4567

    工作时间

    周一至周五:9:00-21:00

    周末及节日:9:00-18:00

  • 手机版二维码

    随时手机查素材

  • 扫描二维码

    加入官方微信群

清清苹果香 管理员
  • 未知地域
  • 1567发帖数
  • 1567主题数
  • 0关注数
  • 3粉丝

[香港][1991][黑猫][梁琤/林祖辉/任达华][犯罪][国粤语简繁软...

[复制链接]
清清苹果香 发表于 2021-5-24 14:50:37 | 显示全部楼层 |阅读模式 打印 上一主题 下一主题
[香港][1991][黑猫][梁琤/林祖辉/任达华][犯罪][国粤语简繁软中字][BD-1080P][1080P][MKV/7.68G][港版蓝光修复无水印][百度云盘]

1.jpg

◎译  名 黑猫/黑猫迷情/Black Cat
◎片  名 黑貓
◎年  代 1991
◎产  地 中国香港
◎类  别 剧情/动作/惊悚/犯罪
◎语  言 汉语普通话/粤语
◎上映日期 1991-08-17
◎豆瓣评分 6.1/10 from 1510 users
◎豆瓣链接 https://douban.com/subject/1293686/
◎片  长 1:31:26
◎导  演 冼杞然 Stephen Shin
◎主  演 任达华 Simon Yam
       梁琤 Jade Leung
            林祖辉 Thomas Lam
            鲁亦诗 Louis Roth



◎简  介

  女孩Catherine(梁峥饰)天性反叛,天资优厚,被CIA的特工训练科看中,招至鞍下。Catherine接受的不是普通的特工训练,而是全身的改造,经过改造她成为了高科技的新人类,代号“黑猫”。从此Catherine成为CIA手中的王牌杀人工具,她的目标无一能幸免。

  在某项任务中,Catherine被派往香港工作,从而认识了鸟类保护区的科学主任Allen。正直善良的Allen使Catherine再次体会到生命的真意,她决心不再受制于CIA,不愿再成为杀人工具。于是,Catherine与 Allen一起奔上逃亡之路……


Video
ID                             : 1
Format                         : AVC
Format/Info                    : Advanced Video Codec
Format profile                 : High@L4.1
Format settings                : CABAC / 4 Ref Frames
Format settings, CABAC         : Yes
Format settings, Reference fra : 4 frames
Codec ID                       : V_MPEG4/ISO/AVC
Duration                       : 1 h 31 min
Bit rate                       : 10.7 Mb/s
Width                          : 1 920 pixels
Height                         : 1 080 pixels
Display aspect ratio           : 16:9
Frame rate mode                : Constant
Frame rate                     : 24.000 FPS
Color space                    : YUV
Chroma subsampling             : 4:2:0
Bit depth                      : 8 bits
Scan type                      : Progressive
Bits/(Pixel*Frame)             : 0.215
Stream size                    : 6.84 GiB (89%)
Title                          : @至尊宝
Writing library                : x264 core 161 r3015 4c2aafd
Encoding settings              : cabac=1 / ref=1 / deblock=1:0:0 / analyse=0x3:0x113 / me=hex / subme=2 / psy=0 / mixed_ref=0 / me_range=16 / chroma_me=1 / trellis=0 / 8x8dct=1 / cqm=0 / deadzone=21,11 / fast_pskip=1 / chroma_qp_offset=0 / threads=12 / lookahead_threads=4 / sliced_threads=0 / nr=0 / decimate=1 / interlaced=0 / bluray_compat=0 / constrained_intra=0 / bframes=3 / b_pyramid=2 / b_adapt=1 / b_bias=0 / direct=1 / weightb=1 / open_gop=0 / weightp=1 / keyint=240 / keyint_min=24 / scenecut=40 / intra_refresh=0 / rc_lookahead=10 / rc=crf / mbtree=1 / crf=24.0 / qcomp=0.60 / qpmin=0 / qpmax=69 / qpstep=4 / ip_ratio=1.40 / aq=2:1.00
Default                        : Yes
Forced                         : No

Audio #1
ID                             : 2
Format                         : AC-3
Format/Info                    : Audio Coding 3
Commercial name                : Dolby Digital
Codec ID                       : A_AC3
Duration                       : 1 h 31 min
Bit rate mode                  : Constant
Bit rate                       : 640 kb/s
Channel(s)                     : 2 channels
Channel layout                 : L R
Sampling rate                  : 48.0 kHz
Frame rate                     : 31.250 FPS (1536 SPF)
Compression mode               : Lossy
Stream size                    : 419 MiB (5%)
Title                          : 国语
Language                       : Chinese
Service kind                   : Complete Main
Default                        : Yes
Forced                         : No

Audio #2
ID                             : 3
Format                         : AC-3
Format/Info                    : Audio Coding 3
Commercial name                : Dolby Digital
Codec ID                       : A_AC3
Duration                       : 1 h 31 min
Bit rate mode                  : Constant
Bit rate                       : 640 kb/s
Channel(s)                     : 2 channels
Channel layout                 : L R
Sampling rate                  : 48.0 kHz
Frame rate                     : 31.250 FPS (1536 SPF)
Compression mode               : Lossy
Stream size                    : 419 MiB (5%)
Title                          : 粤语
Language                       : Chinese
Service kind                   : Complete Main
Default                        : No
Forced                         : No

Text #1
ID                             : 4
Format                         : UTF-8
Codec ID                       : S_TEXT/UTF8
Codec ID/Info                  : UTF-8 Plain Text
Duration                       : 1 h 27 min
Bit rate                       : 24 b/s
Count of elements              : 620
Stream size                    : 15.7 KiB (0%)
Title                          : 简体
Language                       : Chinese
Default                        : Yes
Forced                         : No

Text #2
ID                             : 5
Format                         : UTF-8
Codec ID                       : S_TEXT/UTF8
Codec ID/Info                  : UTF-8 Plain Text
Duration                       : 1 h 27 min
Bit rate                       : 24 b/s
Count of elements              : 620
Stream size                    : 15.7 KiB (0%)
Title                          : 繁体
Language                       : Chinese
Default                        : No
Forced                         : No

Text #3
ID                             : 6
Format                         : UTF-8
Codec ID                       : S_TEXT/UTF8
Codec ID/Info                  : UTF-8 Plain Text
Duration                       : 1 h 27 min
Bit rate                       : 53 b/s
Count of elements              : 620
Stream size                    : 34.4 KiB (0%)
Title                          : 腾祥嘉丽中圆简体
Language                       : Chinese
Default                        : No
Forced                         : No

Text #4
ID                             : 7
Format                         : UTF-8
Codec ID                       : S_TEXT/UTF8
Codec ID/Info                  : UTF-8 Plain Text
Duration                       : 1 h 27 min
Bit rate                       : 53 b/s
Count of elements              : 620
Stream size                    : 34.4 KiB (0%)
Title                          : 腾祥嘉丽中圆繁体
Language                       : Chinese
Default                        : No
Forced                         : No

Menu
00:00:00.000                   : en:第 01 章
00:05:14.041                   : en:第 02 章
00:17:21.583                   : en:第 03 章
00:23:08.083                   : en:第 04 章
00:30:56.458                   : en:第 05 章
00:39:00.458                   : en:第 06 章
00:45:37.875                   : en:第 07 章
00:53:07.083                   : en:第 08 章
01:02:47.083                   : en:第 09 章
01:08:03.041                   : en:第 10 章
01:16:42.041                   : en:第 11 章
01:24:58.708                   : en:第 12 章



下载地址:
https://pan.baidu.com/share/init?surl=o8CnKbAF4JyqvcyP-ovySw

游客,如果您要查看本帖隐藏内容请回复


回复

使用道具 举报

您需要登录后才可以回帖 登录 | 立即注册

本版积分规则

猜你喜欢
全国统一客服电话
400-1234-7788

24x7小时免费咨询

  • 官方在线客服

    QQ客服:小西

    点击交谈

    QQ客服:良子

    点击交谈

    QQ客服:闵月

    点击交谈
  • 上海市虹口区海伦中心B座4F4055-4056室

  • 手机扫码查看手机版

    手机查找资源更方便

  • 扫一扫关注官方微信

    加入官方微信群

Powered by Discuz!X3.4 ©2010-2021 Comsenz Inc.我爱源码论坛营业执照|网站地图